Skip to main content

Jabooda Live at Hylands Orchard & Brewery on 2012-06-16

by Jabooda

Topics Disc Jam 2012




Collection Jabooda
Band/Artist Jabooda
Venue Hylands Orchard & Brewery
Location Sturbridge, MA

Source Schoeps Mk41>KC5>CMC6>Sonosax SX-R4(24bit/96khz) & Soundboard
Lineage WAV>USB>Macbook Pro>Audacity(mixing)>Wave Editor(tracking,fades,resample(izotope)/dither(mbit+)to 16 bit/44.1k)>XAct(FLAC 8,ffp,fix sbe)
Taped by Andy Murray
Transferred by Andy Murray

Notes

Jabooda
2012-06-16
Disc Jam 2012
Hylands Orchard & Brewery
Sturbridge, MA

Recorded and transferred by Andy Murray

Mics were 30' from stage DFC DIN

Schoeps MK41>KC5>CMC6>Sonosax SX-R4(24bit/96khz) & Soundboard>SX-R4

WAV>USB>Macbook Pro>Audacity(mixing)Wave Editor(tracking,fades,resample(izotope)/dither(mbit+)to 16 bit/44.1k)>XAct(FLAC 8,ffp,fix sbe)

1 Set

length expanded size cdr WAVE problems fmt ratio filename
0:22.49 3996092 B --- -- ----- wav 1.0000 jabooda2012-06-16_mk41sbmix_1644_d1t01.wav
3:38.29 38523452 B --- -- ----- wav 1.0000 jabooda2012-06-16_mk41sbmix_1644_d1t02.wav
4:54.00 51861644 B --- -- ----- wav 1.0000 jabooda2012-06-16_mk41sbmix_1644_d1t03.wav
5:30.15 58247324 B --- -- ----- wav 1.0000 jabooda2012-06-16_mk41sbmix_1644_d1t04.wav
8:47.33 93040460 B --- -- ----- wav 1.0000 jabooda2012-06-16_mk41sbmix_1644_d1t05.wav
6:22.02 67389548 B --- -- ----- wav 1.0000 jabooda2012-06-16_mk41sbmix_1644_d1t06.wav
7:05.17 75010028 B --- -- ----- wav 1.0000 jabooda2012-06-16_mk41sbmix_1644_d1t07.wav
36:39.70 388068548 B 1.0000 (7 files)

Reviews

There are no reviews yet. Be the first one to write a review.
PEOPLE ALSO FOUND
Jabooda
by Jabooda
53
0
0
Source: Schoeps Mk41>KC5>CMC6>Sonosax SX-R4(24bit/96khz) & Soundboard
Jabooda
by Jabooda
52
0
0
Source: Schoeps Mk41>KC5>CMC6>Sonosax SX-R4(24bit/96khz) & Soundboard
Source: Schoeps MK41>KC5>CMC6>Sonosax SX-M2>Apogee Mini-me(aes out,24bit/96khz)>COAX>Edirol R-44 & Soundboard>R-44
( 1 reviews )
Source: Schoeps Mk41>KC5>CMC6>Sonosax SX-R4(24bit/96khz) & Soundboard
Source: Schoeps MK41>KC5>CMC6>Sonosax SX-M2>Apogee Mini-me(aes out,24bit/96khz)>COAX>Edirol R-44 & Soundboard>R-44
Source: Schoeps MK41>KC5>CMC6>Sonosax SX-M2>Apogee Mini-me(aes out,24bit/96khz)>COAX>Edirol R-44 & Soundboard>R-44
Source: Schoeps MK41>KC5>CMC6>Sonosax SX-M2>Apogee Mini-me(aes out,24bit/96khz)>COAX>Edirol R-44
Source: Schoeps MK4>KC5>CMC6>Sonosax SX-M2>Apogee Mini-me(aes out,24bit/96khz)>COAX>Edirol R-44
Otis Grove
by Otis Grove
63
0
0
Source: Schoeps MK4>KC5>CMC6>Sonosax SX-M2>Apogee Mini-me(aes out,24bit/96khz)>COAX>Edirol R-44
Dopapod
by Dopapod
214
1
0
Source: Schoeps MK22>KC5>CMC6>Sonosax SX-M2>Apogee Mini-me(aes out,24bit/96khz)>COAX>Edirol R-44